当前位置:
首页 » 剧情片 » 青春派

青春派 Young Style.2013.1080p.HDRip.x264.AC3-SmY 中英

《青春派》海报

◎译 名 青春派

◎片 名 Young Style

◎年 代 2013

◎国 家 中国大陆

◎类 别 剧情 / 爱情

◎语 言 汉语普通话

◎字 幕 中文/英文

◎IMDB评分 N/A

◎IMDB链接 N/A

◎文件格式 X264+ AC3

◎视频尺寸 1920 X 1080

◎文件大小 1CD 2.42G

◎片 长 88min

◎导 演 刘杰 Jie Liu

◎主 演 董子健 Zi Jian Dong

秦海璐 Hailu Qin

焦刚 Gang Jiao

咏梅 Mei Yong

安悦溪 Yue Xi An

郄路通 Lutong Xi

蒋雪鸣 Xue Ming Jiang

高浩元 Haoyuan Gao

谭楚峰 Chufeng Tan

李天浩 Tianhao Li

蒋小涵 Xiaohan Jiang

青春派剧情介绍:

  不疯狂,怎叫青春?居然(董子健 饰)在高考前拍毕业照时,当着全校师生的面,大声地用泰戈尔的诗句向暗恋了三年的黄晶晶(安悦溪饰)表白,收获了甜蜜的初恋。但很快初恋的甜蜜就被闻讯赶来的母亲(咏梅饰)破坏了,黄晶晶在居然母亲的刺激下傲然离去,居然伤心的想爬墙挽回初恋,却摔伤了尾骨。失恋加受伤的他高考失利,看着黄晶晶前往复旦的身影,决定复读追逐爱情。开始了一段疯狂的高三历程。

  在每个青春的回忆中,一个深陷暗恋默默付出的女孩儿,几个情感丰富讲义气的哥们,一群各有故事特色十足的损友,一段所有人共有的回忆。这就是青春派--生活里总在闪烁,永不褪色的一段岁月。

Format : Matroska

File size : 2.42 GiB

Duration : 1h 26mn

Overall bit rate : 4 005 Kbps

Encoded date : UTC 2010-02-22 21:41:31

Writing application : mkvmerge v5.9.0 ('On The Loose') built on Dec 9 2012 15:37:01

Writing library : libebml v1.3.0 + libmatroska v1.4.0

Video #1

ID : 1

Format : AVC

Format/Info : Advanced Video Codec

Format profile : Main@L4.0

Format settings, CABAC : Yes

Format settings, ReFrames : 2 frames

Muxing mode : Header stripping

Codec ID : V_MPEG4/ISO/AVC

Duration : 1h 26mn

Bit rate : 3 733 Kbps

Width : 1 920 pixels

Height : 1 080 pixels

Display aspect ratio : 16:9

Frame rate mode : Variable

Frame rate : 25.000 fps

Color space : YUV

Chroma subsampling : 4:2:0

Bit depth : 8 bits

Scan type : Progressive

Bits/(Pixel*Frame) : 0.072

Stream size : 2.26 GiB (93%)

Writing library : avc encoder v1.9

Audio #2

ID : 2

Format : AC-3

Format/Info : Audio Coding 3

Mode extension : CM (complete main)

Muxing mode : Header stripping

Codec ID : A_AC3

Duration : 1h 26mn

Bit rate mode : Constant

Bit rate : 192 Kbps

Channel(s) : 2 channels

Channel positions : Front: L R

Sampling rate : 44.1 KHz

Bit depth : 16 bits

Compression mode : Lossy

Stream size : 119 MiB (5%)

青春派影片截图:

《青春派》剧照-1

《青春派》剧照-2

《青春派》剧照-3

青春派电影下载:

提示:推荐使用BitComet、Utorrent、QQ旋风、迅雷下载青春派。喜欢在线看的朋友可以把种子上传到百度网盘、115网盘,离线下载完手机电脑都可以在线看。

青春派电影评论

更多精彩电影