当前位置:
首页 » 惊悚片 » 心战

心战/第6誡/天马行凶 Cross.2013.1080p.WEB-DL.x264.AAC-SmY 中文

《心战》海报

◎译 名 心战/第6誡/天马行凶

◎片 名 Cross

◎年 代 2013

◎国 家 香港

◎类 别 悬疑 / 惊悚 / 犯罪

◎语 言 汉语普通

◎字 幕 中文

◎IMDB评分 N/A

◎文件格式 X264 + AAC

◎视频尺寸 1904 x 792

◎文件大小 1CD 1.43G

◎片 长 85 Min

◎导 演 陈翊恒 Daniel Yee Heng Chan

◎主 演 任达华 Simon Yam

黄德斌 Kenny Wong

龚慈恩 Mimi Kung

廖启智 Kai Chi Liu

蔡颖恩 Evelyn Choi

陈燃 Ran Chen

张家辉 Nick Cheung

单立文 Pal Sinn

朱璇 Oceane Zhu

心战剧情介绍:

  自杀的人将永堕地狱;他以刀刃施行"神的慈爱",为了把罪人救赎成无辜者。

  一名男子拖着一个行李箱到警署的报案室,他慢慢从行李箱把整理好的文件、用胶袋包装好的手术刀、半满的药剂瓶逐一拿出来,有条不紊的放在警察面前,淡淡的说了一句"我杀了人,我要自首"。原来他跟数月来多宗谋杀案有关。

  他是李良(任达华饰),认定自己不是连环杀手,而是神的使者。这是上帝在考验他,先要他妻子抵受不了癌症的折磨自杀,再要他体验丧妻之痛;若受苦的人选择自我结束生命,他将受地狱永火;生与死都是悲剧,没有出路。

  李良开始留意网上有关自杀的新闻,偶然他发现一个讨论自杀的网站,内里有很多人分享各种自杀方法,有些人又会讲述想自杀的原因--有的为着家庭,有的失去了生存意义。他明白到人们想自杀的痛苦,自己的使命是要帮助这些人解脱。他请求神给他力量去救赎这些痛苦的人--既然他们选择死亡,就由他去执行杀人,使死者由自杀变成被杀,那死后就可以上天堂。他在网站内分别认识了四位寻死者,逐一跟他们沟通并完成他们的心愿。当李良自以为是执行上帝的意旨时,却发现自己的信念及救赎计划受到不可承受的冲击--

File size : 1.43 GiB

Duration : 1h 25mn

Overall bit rate : 2 407 Kbps

Video

Format : AVC

Format/Info : Advanced Video Codec

Format profile : [email protected]

Format settings, CABAC : Yes

Format settings, ReFrames : 4 frames

Codec ID : 7

Duration : 1h 25mn

Bit rate : 2 328 Kbps

Width : 1 904 pixels

Height : 792 pixels

Display aspect ratio : 2.40:1

Frame rate mode : Constant

Frame rate : 24.000 fps

Color space : YUV

Chroma subsampling : 4:2:0

Bit depth : 8 bits

Scan type : Progressive

Bits/(Pixel*Frame) : 0.064

Stream size : 1.39 GiB (97%)

Writing library : x264 core 128

Audio

Format : AAC

Format/Info : Advanced Audio Codec

Format profile : HE-AAC / LC

Codec ID : 10

Duration : 1h 29mn

Bit rate : 70.7 Kbps

Channel(s) : 2 channels

Channel positions : Front: L R

Sampling rate : 48.0 KHz / 24.0 KHz

Compression mode : Lossy

Stream size : 45.3 MiB (3%)

心战影片截图:

《心战》剧照-1

《心战》剧照-2

《心战》剧照-3

《心战》剧照-4

心战电影下载:

提示:由于该资源受到用户投诉或版权方要求,已经停止链接分享

心战电影评论

更多精彩电影