当前位置:
首页 » 爱情片 » 偷走的那五年

被偷走的那五年/倾城之泪2 The Stolen Years 2013.1080p.HDTV.x264.AC3-SmY 中文

《偷走的那五年》海报

◎译 名 偷走的那五年

◎片 名 The Stolen Years

◎年 代 2013

◎国 家 中国大陆

◎类 别 爱情

◎语 言 汉语普通话

◎字 幕 中文

◎文件格式 X264+ AC3

◎视频尺寸 1920 x 1080

◎文件大小 1CD 3.10G

◎片 长 111min

◎导 演 黄真真 Babara Wong

◎主 演 白百何 Baihe Bai ....何蔓

张孝全 Hsiao-chuan Chang ....谢宇

范玮琪 Wei Chi Fan ....路小环

安心亚 Amber

阿Ken Ken Lin

谢君豪 Kwan-Ho Tse

戴君竹 Junzhu Dai

伍思凯 Sky Wu

偷走的那五年剧情介绍:

  浪漫美好的蜜月之旅,突然以一场车祸戛然而止。曾经沉浸在无上幸福中的何蔓(白百何饰)从昏迷中醒来,却从姐姐何琪(戴君竹饰)那里得知自己已经和深爱的老公谢宇(张孝全饰)离婚的消息。原来她不久前刚刚出了一场车祸,导致忘记了过去五年间发生过的所有事情,最后的记忆只停留在2007年蜜月旅行的梦幻时刻。五年的时间,身边的人和整个世界都发生了太多太多的事情,她痛哭流涕,找到已有新女友的谢宇渴望找回往昔的记忆。

  许是心疼这个曾让自己又爱又恨的女人,谢宇暂时将何蔓留在家中。失落的时光与记忆,物是人非后什么是珍藏彼此心底--

Format : Matroska

File size : 3.10 GiB

Duration : 1h 51mn

Overall bit rate : 3 976 Kbps

Encoded date : UTC 2010-02-22 21:41:31

Writing application : mkvmerge v5.9.0 ('On The Loose') built on Dec 9 2012 15:37:01

Writing library : libebml v1.3.0 + libmatroska v1.4.0

Video #1

ID : 1

Format : AVC

Format/Info : Advanced Video Codec

Format profile : [email protected]

Format settings, CABAC : Yes

Format settings, ReFrames : 2 frames

Muxing mode : Container [email protected]

Codec ID : V_MPEG4/ISO/AVC

Duration : 1h 51mn

Bit rate : 3 705 Kbps

Width : 1 920 pixels

Height : 1 080 pixels

Display aspect ratio : 16:9

Frame rate mode : Variable

Frame rate : 23.976 fps

Resolution : 8 bits

Colorimetry : 4:2:0

Scan type : Progressive

Bits/(Pixel*Frame) : 0.075

Stream size : 2.89 GiB (93%)

Writing library : avc encoder v1.9

Audio #2

ID : 2

Format : AC-3

Format/Info : Audio Coding 3

Codec ID : A_AC3

Duration : 1h 51mn

Bit rate mode : Constant

Bit rate : 192 Kbps

Channel(s) : 2 channels

Channel positions : L R

Sampling rate : 44.1 KHz

Stream size : 153 MiB (5%)

偷走的那五年影片截图:

《偷走的那五年》剧照-1

《偷走的那五年》剧照-2

《偷走的那五年》剧照-3

偷走的那五年电影下载:

提示:由于该资源受到用户投诉或版权方要求,已经停止链接分享

偷走的那五年电影评论

更多精彩电影