当前位置:
首页 » 剧情片 » 我想和你好好的

我想和你好好的.Apart.2013.HDSc.rx264.AC3-SmY 中文

◎译 名 我想和你好好的

◎片 名 Love Will Tear Us Apart

◎年 代 2013

◎国 家 中国大陆

◎类 别 剧情 / 爱情

◎语 言 汉语普通话

◎字 幕 简体

◎IMDB评分 N/A

◎IMDB链接 N/A

◎文件格式 x264+ AC3

◎视频尺寸 720 X 308

◎文件大小 1CD 1.50G

◎片 长 90min

◎导 演 李蔚然 Weiran Li

◎主 演 冯绍峰 Shaofeng Feng ....蒋亮亮

倪妮 Ni Ni ....喵喵

钮宝平 Baoping Niu ....小黑

周德华 Chaw Tak Wah ....肥屎

常小婧 ....梅梅马斯瑟 ....悠悠

郭晓小 Xiao Xiao Guo ....富二代

我想和你好好的剧情介绍:

  在一场破车和兰博基尼的追逐战中,4A公司白领蒋亮亮(冯绍峰 饰)与年轻女演员喵喵(倪妮饰)相识。喵喵的细腻多变,亮亮的温柔让两人陷入甜蜜的爱河。两人的同居生活温馨甜蜜,但亮亮深夜赴约见"前女友",与女同事的暧昧短信,和朋友深夜泡夜店,给喵喵带来深深的不安全感。她想尽一切办法控制亮亮的行踪,却让亮亮承受不了种种"限制",最终喵喵带着自己疯狂的爱消失--

Format : Matroska

File size : 1.50 GiB

Duration : 1h 30mn

Overall bit rate : 2 376 Kbps

Encoded date : UTC 2013-11-06 23:21:04

Writing application : mkvmerge v5.2.0 ('I can't explain') built on Dec 18 2011 18:12:03

Writing library : libebml v1.2.3 + libmatroska v1.3.0

Video #1

ID : 1

Format : AVC

Format/Info : Advanced Video Codec

Format profile : [email protected]

Format settings, CABAC : Yes

Format settings, ReFrames : 4 frames

Muxing mode : Container [email protected]

Codec ID : V_MPEG4/ISO/AVC

Duration : 1h 30mn

Bit rate : 1 945 Kbps

Nominal bit rate : 2 000 Kbps

Width : 720 pixels

Height : 308 pixels

Display aspect ratio : 2.35:1

Frame rate : 29.970 fps

Resolution : 8 bits

Colorimetry : 4:2:0

Scan type : Progressive

Bits/(Pixel*Frame) : 0.293

Stream size : 1.22 GiB (82%)

Writing library : x264 core 116 r2074 2641b9e

Audio #2

ID : 2

Format : AC-3

Format/Info : Audio Coding 3

Codec ID : A_AC3

Duration : 1h 30mn

Bit rate mode : Constant

Bit rate : 384 Kbps

Channel(s) : 6 channels

Channel positions : Front: L C R, Surround: L R, LFE

Sampling rate : 48.0 KHz

Stream size : 247 MiB (16%)

我想和你好好的影片截图:

《我想和你好好的》海报

《我想和你好好的》剧照-1

《我想和你好好的》剧照-2

《我想和你好好的》剧照-3

《我想和你好好的》剧照-4

我想和你好好的电影下载:

提示:由于该资源受到用户投诉或版权方要求,已经停止链接分享

我想和你好好的电影评论

更多精彩电影