当前位置:
首页 » 剧情片 » 波西·杰克逊与魔兽之海

波西·杰克逊与魔兽之海 Percy.Jackson.Sea.of.Monsters.2013.720p.SUB.WEB-DL.x264.AC3-SmY 源盘中文

《波西·杰克逊与魔兽之海》海报

◎译 名 波西·杰克逊与魔兽之海/波西·杰克逊与海怪/波西·杰克逊与妖魔之海(台)

◎片 名 Percy Jackson: Sea of Monsters/Percy Jackson e gli dei dell'Olimpo - Il mare dei mostri/Percy Jackson e o Mar dos Monstros

◎年 代 2013

◎国 家 美国

◎类 别 冒险/家庭/奇幻

◎语 言 英语

◎字 幕 简体

◎IMDB评分 6.4/10 from 18,369 users

◎文件格式 X264 + AC3

◎视频尺寸 1280 x 544

◎文件大小 1CD 2.46 GB

◎片 长 1h 46mn

◎导 演 托尔·弗洛伊德桑尔 Thor Freudenthal

◎主 演 罗根·勒曼 Logan Lerman ....Percy Jackson

布兰登·T·杰克逊 Brandon T. Jackson ....Grover Underwood

亚历珊德拉·达达里奥 Alexandra Daddario ....Annabeth Chase

肖恩·宾 Sean Bean ....Zeus

内森·菲利安 Nathan Fillion ....Hermes

斯坦利·图齐 Stanley Tucci ....Dionysus

杰克·阿贝尔 Jake Abel ....Luke

米西·派勒 Missi Pyle ....Gray Sister

丹尼尔·库德摩尔 Daniel Cudmore ....Manticore

莱文·兰宾 Leven Rambin ....Clarisse

安东尼·海德 Anthony Head ....Chiron

罗伯特·梅耶 Robert Maillet ....Polyphemus

道格拉斯·史密斯 Douglas Smith ....Tyson/ Laistrygonian

Yvette Nicole Brown ....Gray Sister

德里克·梅耶斯 Derek Mears ....Cyclops

格瑞·达蒙 Grey Damon ....Chris Rodriguez

玛丽·伯德桑 Mary Birdsong ....Gray Sister

Paloma Kwiatkowski ....Thalia Grace

Alisha Newton ....Young Annabeth

艾力克斯·保诺维奇 Aleks Paunovic ....Cyclops

Christopher Redman ....Reardon

Katelyn Mager ....Young Thalia

Danny Le Boyer ....Ethan Nakamura

Bjorn Yearwood ....Young Grover

Jordan Weller ....Ichneutae

Samuel Braun ....Young Luke

Richard Yearwood ....Ganymede

Maxine Miller ....Customer

Anthony Shim ....Barista

David Mylrea ....Lydian Drakon

Camille Atebe ....Barista

Connor Dunn ....Tereus

Andrew Plaisance ....Half-Blood Demigod Teen (uncredited)

Artin John Tsambazis ....Demigod (uncredited)

索瑞·安达斯鲁 Shohreh Aghdashloo ....Oracle (voice)

克雷格·罗宾逊 Craig Robinson ....George (voice)

朗·普尔曼 Ron Perlman ....Polyphemus (voice)

奥克塔维亚·斯宾瑟 Octavia Spencer ....Martha (voice)

罗伯特·克耐普 Robert Knepper ....Kronos

Hanna Frankel ....Additional Voices (voice) (uncredited)

波西·杰克逊与魔兽之海剧情介绍:

  在半人半神的集中营里呆了平静的几年之后,波西在这里碰到了自己的哥哥--一个独眼怪。生活开始很是平静,但是不久之后,出现了一个叫做卢克的人,他蓄意复仇,要复活克洛诺斯,并且要摧毁整个奥林匹斯山--顺带的,杀死所有的半人半神的孩子们。

  随着事态渐渐变得眼中,波西发现自己的家园、自己的族人和整个地球都在遭受着侵袭,丑陋的食人族巨无霸也搅合其中,妄图在乱世中分得一杯羹。为了找出解决问题的方法,波西和自己最好的朋友一起去找老师求助。老师告诉他们,解决这个问题的办法存在水下,他们要到魔兽之海去,潜入水底,找到金羊毛,随后才能回来解决问题--而所谓的魔兽之海,恰恰就是令人闻风丧胆的百慕大魔鬼三角区。

  为了拯救整个世界,波西和自己的同伴上了路。在去往寻找"金羊毛"的路上,需要穿越充满陷阱和各路怪兽的丛林,而波涛汹涌的魔兽之海同样危机四伏,除了巨龙之外,随时可能成为鲨鱼的口中之物。

  他们能顺利拿到金羊毛,力挽狂澜,拯救自己和整个世界么?

一句话评论

  这部取材于希腊神话的青少年续集影片,是《哈利波特》、《暮光之城》、《饥饿游戏》和《夺宝奇兵》的大杂烩。

--《纽约邮报》

  托尔·弗洛伊德桑尔执导的这部续集缺乏其前作的青春活力。

--《好莱坞报道》

◎幕后制作

青少年版的神话故事

  上一部影片讲述的是火种的故事,而在这部电影里,故事的重点被放在了"金羊毛"之上。毫无疑问,原作者瑞克·瑞奥丹是把希腊神话的故事和现代美国的青少年的故事杂糅在了一起。而这种杂糅,到了《小屁孩日记》导演托尔·弗洛伊德桑尔的手中,就变成了一个充满了想象力、CG动画和冒险题材故事的影片。托尔·弗洛伊德桑尔说:"自从上一部电影上映之后,我就被这种神话故事混搭美国青少年影片的风格所吸引,我觉得这是一中很好、很成功的尝试。因为在这个故事里,有神话的部分,有冒险,还有正邪对抗的元素。所有的这一切,都是一部电影获得成功的关键。神话,一直都是大众文化的组成部分,每隔一段时间都会流行一次,它真的能启迪人们的想象力。"

  为了让这部电影的故事更加刺激、更具有神秘的感觉,弗洛伊德桑尔找来了《犯罪现场调查》、《绿灯侠》和《绿箭侠》等影视作品的编剧马克·古根海姆来撰写影片的剧本。弗洛伊德桑尔说:"剧本是这部电影的灵魂,因为如此宏大的世界的设定和架构是需要很强的实力才能做好的事情。除此之外,改编一套流行小说,则更加困难。这个剧本,从根本上来说,是忠实于原著的,但是又和原著有不小的区别。因为从小说到电影,不仅仅是叙事载体的区别,还有叙事元素和说故事的方法的根本的不同。我们只能从中找到一种平衡。既要满足原作小说的粉丝的心里需求,又要满足影迷对电影的要求。在古根海姆的剧本里,我看到了一个把神话、冒险和现实主义连接起来的作品,这很令人爱不释手。"

原班人马回归

  在这一部电影里,标题人物波西·杰克逊发现自己还有一个哥哥--同样也是半人半神的泰森--他是一个独眼人。既然有了自己的亲人的出场,那么这部电影就免不了要表现家人之间的情感。其实,在导演弗洛伊德桑尔所修改的剧本中,家庭戏,是这部电影的一个重点。弗洛伊德桑尔说:"因为这部电影中充满了冒险的故事,爱情戏难以展开,所以家庭成员之间的情感就成为了影片的情感重头戏。而且,我还是一个很看重这种情感的人。其实,也就是影片中的这种感情元素,才让我决定来执导这部电影的。虽然说影片是以大场面和冒险题材为主的,但是兄弟间的情感,恰恰是最为画龙点睛的元素。我很看好这种情感戏的戏份和处理方式。"

  在片中,罗根·勒曼再次扮演波西,而亚历珊德拉·达达里奥也再次扮演了安娜贝丝一角。谈及自己再次扮演波西这个角色,勒曼说:"能再次扮演这个角色是个意外之喜,因为已经过去了快4年时间,我都认为不会再有第二部电影了。当他们告诉我,让我继续来出演这个角色的时候,我非常激动,因为波西这个角色令我印象深刻。这部电影和上部电影不一样,除了CG的比重继续变大外,我还有了一个哥哥,而我和他之间的那种血缘关系,在影片中会得到不少展示。应该说,在情感上,这部电影比第一部要深刻很多。" 达达里奥也表示说:"我也没有想到这部电影会卷土重来。拍摄这部电影,对我来说,最大的难度在于这是夏天拍摄的电影,但是我却需要穿着紧身的牛仔裤和法兰绒的上衣做表演。这还是一部动作电影,所以我需要做的动作很多。为了能表现好,在影片开拍前,我就开始进行体育锻炼,做了很多瑜伽,把身体调整到了能胜任这个角色的水准。我觉得,动作戏是我最大的挑战,这是我所拍摄过的, 最吃紧的影片。不过,拍摄这部电影,还是令人非常兴奋。"

◎拍摄花絮

  ·亚历珊德拉·达达里奥和莱文·兰宾都为了自己的角色而把头发染成了金黄色。

  ·影片改编自瑞克·瑞奥丹的同名系列小说。《波西·杰克逊和魔兽之海》是该系列的第二部小说。该系列一共有5部小说,除了已经拍摄的两部之外,还有《泰坦的诅咒》(The Titan's Curse)、《迷宫之战》(The Battle of theLabyrinth)和《最后的奥林匹亚神》(The Last Olympian)。

  ·2011年3月,这部续集电影就被提上了日程。正好是前一集上映一周年的时候。

·影片原计划在2013年的3月15日上映。

·影片大部分场景在温哥华和新奥尔良拍摄。

Format : Matroska

File size : 2.46 GiB

Duration : 1h 46mn

Overall bit rate : 3 307 Kbps

Encoded date : UTC 2010-02-22 21:41:31

Writing application : mkvmerge v5.9.0 ('On The Loose') built on Dec 9 2012 15:37:01

Writing library : libebml v1.3.0 + libmatroska v1.4.0

Video #1

ID : 1

Format : AVC

Format/Info : Advanced Video Codec

Format profile : [email protected]

Format settings, CABAC : Yes

Format settings, ReFrames : 4 frames

Muxing mode : Header stripping

Codec ID : V_MPEG4/ISO/AVC

Duration : 1h 46mn

Bit rate : 3 000 Kbps

Width : 1 280 pixels

Height : 542 pixels

Display aspect ratio : 2.35:1

Frame rate : 23.976 fps

Color space : YUV

Chroma subsampling : 4:2:0

Bit depth : 8 bits

Scan type : Progressive

Bits/(Pixel*Frame) : 0.180

Stream size : 2.17 GiB (88%)

Writing library : x264 core 116 r2074 2641b9e

Audio #2

ID : 2

Format : AC-3

Format/Info : Audio Coding 3

Mode extension : CM (complete main)

Muxing mode : Header stripping

Codec ID : A_AC3

Duration : 1h 46mn

Bit rate mode : Constant

Bit rate : 320 Kbps

Channel(s) : 2 channels

Channel positions : Front: L R

Sampling rate : 48.0 KHz

Bit depth : 16 bits

Compression mode : Lossy

Stream size : 244 MiB (10%)

波西·杰克逊与魔兽之海影片截图:

《波西·杰克逊与魔兽之海》剧照-1

《波西·杰克逊与魔兽之海》剧照-2

《波西·杰克逊与魔兽之海》剧照-3

波西·杰克逊与魔兽之海电影下载:

提示:推荐使用BitComet、Utorrent、QQ旋风、迅雷下载波西·杰克逊与魔兽之海。喜欢在线看的朋友可以把种子上传到百度网盘、115网盘,离线下载完手机电脑都可以在线看。

波西·杰克逊与魔兽之海电影评论

更多精彩电影