当前位置:
首页 » 动作片 » 弯刀杀戮

弯刀杀戮/索女?重炮?神经刀 Machete.Kills.2013.720p.HDRip.SUB.x264.AC3-SmY 中文

【影片原名】Machete Kills

【中文译名】弯刀杀戮/索女•重炮•神经刀(港)

【出品公司】Aldamisa Entertainment

【出品年代】2013 年

【上映日期】2013年10月11日 美国

【影片级别】Canada:14A (British Columbia) | Australia:MA15+ | USA:R (certificate #48476) | UK:15 | Ireland:16

【IMDB评分】6.3/10 (5,817 votes)

【国 家】美国/俄罗斯

【类 别】动作/犯罪/惊悚

【导 演】罗伯特·罗德里格兹 Robert Rodriguez

【主 演】丹尼·特乔 Danny Trejo ....Machete Cortez

艾梅柏·希尔德 Amber Heard ....Miss San Antonio

索菲娅·维加拉 Sofia Vergara ....Madame Desdemona

米歇尔·罗德里格兹 Michelle Rodriguez ....Shé

阿丽夏·维加 Alexa Vega ....KillJoy

杰西卡·阿尔芭 Jessica Alba ....Sartana

瓦妮莎·哈金斯 Vanessa Hudgens ....Cereza

梅尔·吉布森 Mel Gibson ....Luther Voz

女神卡卡 Lady GaGa ....La Chameleón

查理·辛 Charlie Sheen ....U.S. President (as Carlos Estevez)

安东尼奥·班德拉斯 Antonio Banderas ....Gregorio Cortez

小库珀·古丁 Cuba Gooding Jr. ....El Cameleón

威廉姆·赛德勒 William Sadler ....Sheriff Doakes

德米安·比齐尔 Demián Bichir ....Mendez the Madman

艾莱特拉·阿维兰 Electra Avellan ....Nurse Mona

【文件格式】未知

弯刀杀戮剧情介绍:

TheU.S. government recruits Machete to battle his way through Mexico inorder to take down an arms dealer who looks to launch a weapon intospace.

一句话评论

  暴力上持平前作,但总体上却更加乏味,通篇全靠导演的狂妄能量和明星客串支撑。 --《综艺》

  本片就像是一顿完全由辣椒构成的大餐,始于辛辣,终于麻木。 --《完全电影》

  《弯刀杀戮》实在荒唐的有趣,比第一部有更好的笑料、更多的血浆和更加明显的自我风格。而且不论罗德里格兹说得如何地好,它并不真的是对剥削电影的致敬,而更像是恶搞。 --The A.V. Club

郑重声明:

  本站提供的所有影视作品均是在网上搜集,任何涉及商业盈利目的均不得使用,否则产生的一切后果将由您自己承担!本站将不对本站的任何内容负任何法律责任!该下载内容仅做宽带测试使用,请在下载后24小时内删除。请购买正版!

Format : Matroska

File size : 2.38 GiB

Duration : 1h 43mn

Overall bit rate : 3 305 Kbps

Encoded date : UTC 2010-02-22 21:41:31

Writing application : mkvmerge v5.9.0 ('On The Loose') built on Dec 9 2012 15:37:01

Writing library : libebml v1.3.0 + libmatroska v1.4.0

Video #1

ID : 1

Format : AVC

Format/Info : Advanced Video Codec

Format profile : [email protected]

Format settings, CABAC : Yes

Format settings, ReFrames : 4 frames

Muxing mode : Container [email protected]

Codec ID : V_MPEG4/ISO/AVC

Duration : 1h 43mn

Bit rate : 2 919 Kbps

Nominal bit rate : 3 000 Kbps

Width : 1 280 pixels

Height : 680 pixels

Display aspect ratio : 1.882

Frame rate : 25.000 fps

Resolution : 8 bits

Colorimetry : 4:2:0

Scan type : Progressive

Bits/(Pixel*Frame) : 0.134

Stream size : 2.10 GiB (88%)

Writing library : x264 core 116 r2074 2641b9e

Audio #2

ID : 2

Format : AC-3

Format/Info : Audio Coding 3

Codec ID : A_AC3

Duration : 1h 43mn

Bit rate mode : Constant

Bit rate : 320 Kbps

Channel(s) : 2 channels

Channel positions : L R

Sampling rate : 48.0 KHz

Stream size : 236 MiB (10%)

弯刀杀戮影片截图:

《弯刀杀戮》海报

《弯刀杀戮》剧照-1

《弯刀杀戮》剧照-2

弯刀杀戮电影下载:

提示:由于该资源受到用户投诉或版权方要求,已经停止链接分享

弯刀杀戮电影评论

更多精彩电影