当前位置:
首页 » 动作片 » 斯大林格勒

斯大林格勒/斯大林格勒保卫战【国英双语】 Stalingrad.2013.DVDScr.x264.2Audio-SmY 中文

《斯大林格勒》海报

◎译 名 斯大林格勒/斯大林格勒保卫战

◎片 名 Stalingrad

◎年 代 2013

◎国 家 俄罗斯 / 美国

◎类 别 动作 / 战争

◎语 言 汉语普通话/英语

◎字 幕 简体

◎IMDB链接 Ratings: 4.9/10 from 1,881 users

◎文件格式 x264+ AC3

◎视频尺寸 720 X 404

◎文件大小 1CD 2.03G

◎片 长 122min

◎导 演 费多尔·邦达尔丘克 Fyodor Bondarchuk

◎主 演 皮欧特·费奥多罗夫 Pyotr Fyodorov ....Kapitan Gromov

玛丽娅·斯莫尼科娃 Maria Smolnikova

托马斯·克莱舒曼 Thomas Kretschmann

娅尼娜·斯图迪利纳 Yanina Studilina ....Masha

菲利普·莱因哈特 Philippe Reinhardt ....GottfriedHeiner Lauterbach

安德烈·斯莫利亚科夫 Andrei Smolyakov

阿列克谢·巴拉瓦什 Aleksei Barabash

Georges Devdariani ....Klose

Dmitri Lysenkov ....Serzhant Chvanov

Oleg Volku

斯大林格勒剧情介绍:

  1942年,斯大林格勒。苏联军队根据作战计划向盘据伏尔加河左岸的德国军队展开反攻,然而反攻受阻,只有格罗莫夫大尉(彼得·费奥多罗夫 Pyotr Fyodorov饰)率领的几名侦察兵渡过到了对岸,并固守在一栋三层楼的房子里,他们临危受命要不惜任何代价守住这栋房子,除了另外几名奇迹般幸免的苏军士兵外,他们遇到了这栋房子的最后一位住户--19岁的卡嘉(玛丽亚·斯莫尔尼科娃Mariya Smolnikova 饰)。

德国军官卡恩(托马斯·克莱舒曼 Thomas Kretschmann饰)奉命要夺回这栋被对手占领的房子。

  影片为俄罗斯首部IMAX®3D版电影,剧本取材于瓦西里·格罗斯曼长篇小说《生活与命运》某些章节。以人类历史上最血腥的一场战役为背景,详尽描述了一段具有戏剧性人性冲突的爱情故事。

Format : Matroska

File size : 2.03 GiB

Duration : 2h 2mn

Overall bit rate : 2 377 Kbps

Encoded date : UTC 2010-02-22 21:41:31

Writing application : mkvmerge v5.9.0 ('On The Loose') built on Dec 9 2012 15:37:01

Writing library : libebml v1.3.0 + libmatroska v1.4.0

Video #1

ID : 1

Format : AVC

Format/Info : Advanced Video Codec

Format profile : [email protected]

Format settings, CABAC : Yes

Format settings, ReFrames : 4 frames

Format settings, GOP : M=4, N=41

Muxing mode : Header stripping

Codec ID : V_MPEG4/ISO/AVC

Duration : 2h 2mn

Bit rate : 2 000 Kbps

Width : 720 pixels

Height : 404 pixels

Display aspect ratio : 16:9

Frame rate : 29.970 fps

Color space : YUV

Chroma subsampling : 4:2:0

Bit depth : 8 bits

Scan type : Progressive

Bits/(Pixel*Frame) : 0.229

Stream size : 1.66 GiB (82%)

Writing library : x264 core 116 r2074 2641b9e

Audio #2

ID : 2

Format : AC-3

Format/Info : Audio Coding 3

Mode extension : CM (complete main)

Muxing mode : Header stripping

Codec ID : A_AC3

Duration : 2h 2mn

Bit rate mode : Constant

Bit rate : 192 Kbps

Channel(s) : 2 channels

Channel positions : Front: L R

Sampling rate : 48.0 KHz

Bit depth : 16 bits

Compression mode : Lossy

Stream size : 168 MiB (8%)

Audio #3

ID : 3

Format : AC-3

Format/Info : Audio Coding 3

Mode extension : CM (complete main)

Muxing mode : Header stripping

Codec ID : A_AC3

Duration : 2h 2mn

Bit rate mode : Constant

Bit rate : 192 Kbps

Channel(s) : 2 channels

Channel positions : Front: L R

Sampling rate : 48.0 KHz

Bit depth : 16 bits

Compression mode : Lossy

Stream size : 168 MiB (8%)

斯大林格勒影片截图:

斯大林格勒电影下载:

提示:由于该资源受到用户投诉或版权方要求,已经停止链接分享

斯大林格勒电影评论

更多精彩电影