当前位置:
首页 » 科幻片 » 黑衣人2

[黑衣人2].Black.II.2002.BluRay.720p.x264.2Audio.AC3-CnSCG[中英字幕]

原盘压制。国配为mymike提供的泰盛正版国配音轨!

《黑衣人2》海报

◎译 名 黑衣人2/黑超特警组2/MIB星际战警2

◎片 名 Men in Black II

◎年 代 2002

◎国 家 美国

◎类 别 动作/喜剧/科幻

◎语 言 普通话/英语

◎字 幕 中文/英文

◎IMDB评分 5.5/10 (39,236 votes)

◎导 演 巴里·索南菲尔德 Barry Sonnenfeld

◎主 演 汤米·李·琼斯 Tommy Lee Jones .....Kevin Brown, Agent Kay

威尔·史密斯 Will Smith .....Agent Jay

雷普·汤恩 Rip Torn .....Zed

劳拉·弗林·鲍尔 Lara Flynn Boyle .....Serleena

约翰尼·诺克斯维尔 Johnny Knoxville .....Scrad/Charlie

罗莎里奥·道森 Rosario Dawson .....Laura Vasquez

托尼·夏尔赫布 Tony Shalhoub .....Jack Jeebs

帕特里克·沃伯顿 Patrick Warburton .....Agent Tee

杰克·凯勒 Jack Kehler .....Ben

大卫·克罗斯 David Cross .....Newton

Colombe Jacobsen-Derstine .....Hailey (as Colombe Jacobsen)

Peter Spellos .....Captain Larry Bridgewater, The Motorman

Michael Rivkin .....Man with Harvey, the Dog

Michael Bailey Smith .....Creepy

Lenny Venito .....New York Guy

Howard Spiegel .....New York Guy

Alpheus Merchant .....MIB Guard

Jay Johnston .....Younger Pizza Parlor MIB Agent

Joel McKinnon Miller .....Agent

Derek Cecil .....Repairman Agent

黑衣人2剧情介绍:

  邪恶的外星魔女来到地球寻找统治宇宙万物的关键外星人,但是只有K才知道关键外星人的藏匿处,J必须让K赶紧恢复记忆,才能阻止邪恶的外星魔女进行统治地球的行动。这对最佳搭档终于又走到一起,向外星人宣战了-

  我们都知道黑超特警(MIB)们是没有真正的名字的,取而代之的只有一个个英文字母作为各自的代号。"J"(威尔·史密斯)在第一集中与带领自己入门的老搭档一别之后,已经成长为一名经验丰富、无往不利的老练干探。但在了结一次看似普通的案件时,"J" 的直觉感到案件还存有疑点。深入调查后,他发现此案背后其实蕴藏着一个颠覆地球的邪恶计划。而这邪恶计划的始作蛹者便是的外星人瑟琳娜(Serleena,罗拉·弗琳·鲍儿扮演)。瑟琳娜为了达到其打击地球的目的,摇身一变为美丽性感的女模特,混入MIB大厦并以整座大厦的安危作要挟。同时,为捣毁瑟琳娜的阴谋,营救被困人质,势单力薄的警探"J"只有去找昔日搭档"K"(汤米·李·琼斯)。

  MIB老将"K"在被洗去记忆退休后,长期任职于 "最枯燥乏味"的美国邮政系统,完全不知道外星人就在自己的身边。对于"K"来说,工作虽然平淡单调,但是这种简单轻松的日子却正是他梦寐以求的生活。"K"享受着与妻子的温馨生活,外星人的阴谋已激不起他的战斗意识。"J"只有恢复"K"的记忆,两人才能拿起装备,并肩作战。好在不用我们来操心"K"的复出,经过几个掺七杂八的笑料回合,这对皇牌搭档终于又走到一起,为捍卫地球而战斗。

◎创作背景

  由美国当红电视剧集《X档案(X-FIles)》中的黑衣秘密Police引发灵感,在杂志《神奇漫画(Marvel Comic)》上发表后热销,最后在1997年被改编成电影大获成功的《黑衣人》,是一部讲述捍卫地球安全的秘密特警,与企图引发宇宙大战的邪恶外星人抗争的科幻动作片。片中千奇百变的外星人和超眩拉风的武器装备让人耳目一新。好莱坞黑帅哥威尔·史密斯和足智多谋派汤米·李·琼斯成功塑造了一对风格互补的黑超特警搭档,两人幽默风趣的表演更为此剧增添不少轻松搞笑的成分。无怪乎当年影片上映才一周,就为哥伦比亚公司狂收7000万美金的票房收入。

  1997年的成功使得哥伦比亚公司将续集《黑衣人2》作为2002年全美夏季的主打大片。影片将延用前集的导演巴利·索南菲尔德,并仍由威尔·史密斯和汤米·李·琼斯两大男主角搭档。由于前作的空前成功,2001年在纽约开机的这部续集理所当然的倍受媒体和大众的关注。

幕后故事

◎高价剧组

  可以用一句话来评价好莱坞影业公司的投资风格,那就是:"舍得孩子,套得狼"。《黑衣人2》几乎完全是由原班功臣再度出马,从制作人、导演、男主角,到配乐、设计、化妆、特效等等均无甚变化--做到这一点可不是么简单。鉴于《黑衣人》第一集的历史性成功,各路人马都曾以不回归剧组为要挟,狮子大开口。外传哥伦比亚公司为力邀原班人马出山大掏腰包,不仅迅速答应导演巴利·索南菲尔德开出的远远超过前集的酬劳,开给威尔·史密斯和汤米·李·琼斯的片酬也已高达每人2000万元。

  不止于此,在开出好莱坞天价一般的薪水的同时,哥伦比亚公司还许以高额的分红!准确的说:哥伦比亚公司将会把《黑衣人2》影片上映后"2亿美金内的毛利的50%",按商定比例分给重回剧组的导演、制作人和两位大明星。其中,威尔·史密斯拿大头20%,已经接近汤米·李·琼斯的12.5%的两倍;导演巴利·索南菲尔德可得10%;执行制作人斯蒂文·斯皮尔伯格也不会少拿,可得7.5%;制作人沃特(Walter Parkes)和劳瑞·麦当劳(Laurie MacDonald)共分5%。哥伦比亚公司大把大把散银子的风格令人咋舌,他们对续集的收益预期和重视程度也由此可见一斑。

大放异彩的威尔·史密斯

  男主角威尔·史密斯在好莱坞的发展可谓如日中天。1997年威尔·史密斯在《黑衣人》中大放异彩,帅气的外表加之生动的表演,使他矫健的身形闯入了千千万万影迷的视线。此片之后,威尔·史密斯星路亨通,塑造更多各式各样的银幕形象,典型的表演如《独立日》中那个敏捷的飞行员,以及《飙风战警》中西部牛仔味十足的总统保镖,威尔·史密斯完美演出了一系列性格鲜明的正派角色,而且形象正直仍不乏

◎威尔·史密斯

幽默,成为好莱坞首屈一指的黑人演员。

  出演影片《拳王阿里》,是威尔·史密斯演艺道路上的关键转折点,如果失败,可能就说明威尔终究只能做一名好莱坞二档喜剧明星;终于,威尔对世界拳王的精彩演绎,使他获得了2002年奥斯卡最佳男演员奖提名,此项提名是对他表演天分的肯定,同时也使这位好莱坞黑人演员的演艺生涯攀上了一个新的高峰。

  威尔·史密斯的个人魅力也值得分析,正如他自己在本年度奥斯卡颁奖典礼上所说的,他的个人风格就是"Don't give it dame!(不去鸟它)"--这种近乎天真的不可一世的风格,显然吸引了无数在现实生活中备受各种压力并因此产生共鸣的普通美国人。《黑衣人2》又正是搭配了威尔的这种风格,将之发挥到了极致。细细品来,影片背后这种:成功、自大、不在乎别人看法、走自己的路的美式人文风格,也是使威尔·史密斯和他的影片成功的重要因素。

女明星背后的故事

  哈里森·福特前些时候终于宣布和太太已正式分居,很多媒体都猜测这场好莱坞式的典型婚姻场景剧的真正原因和第三者的介入有关。在传言之中,《黑衣人2》中的第一女配角,女星罗拉·弗琳·鲍儿便是主嫌。虽然说这样的猜测有些过于八卦,但是哈里森·福特和罗拉·弗琳·鲍儿在纽约酒吧里调情的照片被公开的时间,与福特夫妇宣布正式分居的时间是如此的接近,以至于没人会不怀疑两件事之间的联系。当然,罗拉·弗琳·鲍儿的风流韵事还不止于此,32岁的她曾经和杰克·尼克尔森交往过一阵子,她的名字也曾和布鲁斯·威利斯连在一起过。安排这样一位演员出演《黑衣人2》中的女魔头,不知道在某些人眼中看起来算不算有形神暗合之妙。

迈克尔·杰克逊的友情客串

  《黑衣人2》另一个不可错过的卖点,就属流行歌王迈克尔·杰克逊的友情客串了。这位举世瞩目的歌星将在片中一展尊容。先前媒体曾猜测迈克尔·杰克逊将在片中扮演一个外星人的小角色,导演立刻出面咬文嚼字地"辟谣"表示:迈克尔在片中并非饰演外星人而是一个"卧底"的外星人。当然了,卧底外星人和外星人是不同的,是很正面、很重要的角色,这就像蛋糕和奶油蛋糕之间的不同,奶油蛋糕的奶油要多一点--

  迈克尔·杰克逊的银幕扮相也会十分耀眼,尽管镜头很短,导演还是要与他认认真真的合作5个小时。据报道,两人从舞台背景至表演站位一一切磋,相信届时迈克尔·杰克逊的一定会吸引不少短暂但火辣辣的目光。

删减与世贸中心有关镜头

  从2001年末以来的一连串与纽约都市有关的影片,都被迫相继剪去了与被炸毁的世界贸易中心有关的镜头。即使事发后已经将近一年才上映的《黑衣人2》也不能幸免例外。与日前的《蜘蛛侠》不同,《黑衣人2》的原定结尾就发生在世界贸易中心。这可不是一些可有可无的场景,制作人必须大动干戈才能解决替换掉世界贸易中心的棘手问题。最后,《黑衣人2》的大结局只得全部挪到了纽约的另一处标志性建筑物--克莱斯勒大厦,重新制作一遍。

◎影片评论

  虽然《黑衣人2》与大红大紫的《蜘蛛侠》一样都是改编自漫画故事。但这部喜剧色彩浓重的科幻动作片,从类型上看就显得更为轻松,较讨大众喜欢。无论是男权主义、女权主义、或是黑人至上主义,甚至什么主义也没有,只要服从于自己的潜意识,都无法抗拒《黑衣人2》的强大魅力。奇妙的事件就发生在自己的身边,充满外星人伪装的城市,超级强力的人类特警MIB,而你只是从来不记得自己知道这一切--没有人会不愿意相信这样的成年童话(Ooops,也许不是童话)。也许你会幻想于自己成为这样一位神秘的特警,这就是这部电影的奇妙之处吧,神秘吸引人。

  挺起令人眼晕的超级枪管,挑战来自浩瀚宇宙中的毁灭威胁--快乐的满足观众不能亲身做到的种种幻想,《黑衣人2》又一次把好莱坞商业电影的精髓发挥到了极限。加之影片男主角人气高涨,又是媒体先期炒作的力作。虽然说要超过《蜘蛛侠》所创造的卖座纪录依旧困难重重,但相信7月份的美国暑期票房王座定然非《黑衣人2》莫属了。

General

Format : Matroska

File size : 2.33 GiB

Duration : 1h 28mn

Overall bit rate : 3 778 Kbps

Movie name : [email protected]

Encoded date : UTC 2012-04-22 11:41:36

Writing application : mkvmerge v3.3.0 ('Language') built on Mar 24 2010 14:59:24

Writing library : libebml v0.8.0 + libmatroska v0.9.0

Video

ID : 1

Format : AVC

Format/Info : Advanced Video Codec

Format profile : [email protected]

Format settings, CABAC : Yes

Format settings, ReFrames : 4 frames

Muxing mode : Container [email protected]

Codec ID : V_MPEG4/ISO/AVC

Duration : 1h 28mn

Bit rate : 3 063 Kbps

Nominal bit rate : 3 138 Kbps

Width : 1 280 pixels

Height : 692 pixels

Display aspect ratio : 1.850

Frame rate : 23.976 fps

Resolution : 24 bits

Colorimetry : 4:2:0

Scan type : Progressive

Bits/(Pixel*Frame) : 0.144

Stream size : 1.88 GiB (81%)

Writing library : x264 core 120 r2164 da19765

Encoding settings : cabac=1 / ref=4 / deblock=1:-3:-3 / analyse=0x3:0x113 / me=umh / subme=9 / psy=1 / psy_rd=1.00:0.00 / mixed_ref=1 / me_range=32 / chroma_me=1 / trellis=2 / 8x8dct=1 / cqm=0 / deadzone=21,11 / fast_pskip=0 / chroma_qp_offset=-1 / threads=6 / sliced_threads=0 / nr=0 / decimate=0 / interlaced=0 / bluray_compat=0 / constrained_intra=0 / bframes=3 / b_pyramid=2 / b_adapt=2 / b_bias=0 / direct=1 / weightb=1 / open_gop=0 / weightp=2 / keyint=240 / keyint_min=23 / scenecut=40 / intra_refresh=0 / rc_lookahead=40 / rc=2pass / mbtree=1 / bitrate=3138 / ratetol=1.0 / qcomp=0.60 / qpmin=0 / qpmax=69 / qpstep=4 / cplxblur=20.0 / qblur=0.5 / ip_ratio=1.40 / aq=1:1.00

Language : English

Audio #1

ID : 2

Format : AC-3

Format/Info : Audio Coding 3

Codec ID : A_AC3

Duration : 1h 28mn

Bit rate mode : Constant

Bit rate : 448 Kbps

Channel(s) : 6 channels

Channel positions : Front: L C R, Surround: L R, LFE

Sampling rate : 48.0 KHz

Stream size : 282 MiB (12%)

Title : English DD5.1 448K

Language : English

Audio #2

ID : 3

Format : AC-3

Format/Info : Audio Coding 3

Codec ID : A_AC3

Duration : 1h 28mn

Bit rate mode : Constant

Bit rate : 192 Kbps

Channel(s) : 2 channels

Channel positions : L R

Sampling rate : 48.0 KHz

Stream size : 121 MiB (5%)

Title : Mandarin DD2.0 192Kbps

Language : Chinese

Text #1

ID : 4

Format : SSA

Codec ID : S_TEXT/SSA

Codec ID/Info : Sub Station Alpha

Title : 上中下英

Language : Chinese

Text #2

ID : 5

Format : SSA

Codec ID : S_TEXT/SSA

Codec ID/Info : Sub Station Alpha

Title : 上英下中

Language : English

Text #3

ID : 6

Format : SSA

Codec ID : S_TEXT/SSA

Codec ID/Info : Sub Station Alpha

Title : 中文字幕

Language : Chinese

Text #4

ID : 7

Format : UTF-8

Codec ID : S_TEXT/UTF8

Codec ID/Info : UTF-8 Plain Text

Title : 英文字幕

Language : English

《黑衣人2》剧照-1

黑衣人2电影下载:

提示:由于该资源受到用户投诉或版权方要求,已经停止链接分享

黑衣人2电影评论

更多精彩电影