当前位置:
首页 » 喜剧片 » 全美洗车女郎

[全美洗车女郎]All.American.Bikini.Car.Wash.2015.1080p.BluRay.x264-WiKi 8.9GB

全美洗车女郎 / 全美奶霸洗车行  *看我大胸洗车 自控能力差的不要看*

◎片 名  All American Bikini Car Wash

◎译 名  全美洗车女郎 / 全美奶霸洗车行

◎年 代  2015

◎国 家  美国

◎电影类型  喜剧

◎语 言  英语

◎上映日期  2015-08-29

◎iMDB评分  3.5/10 (240 votes)

◎片 长  1h:35m:22s

◎导 演  Nimrod Zalmanowitz

◎编 剧  Patrick Rodio

◎演 员  Jack Cullison

Jason Lockhart

Kayla Collins

明迪·罗宾逊 Mindy Robinson

艾丽卡·乔丹 Erika Jordan

Ashley Park

Scarlet Red

Emma Lane

全美洗车女郎剧情介绍:

  成续强差人意的积,大学可能毕业不了,教授给他一个翻身的机会—如果能经营洗车店一星期并赚钱,就当过关。积找老友帮忙,绞尽脑汁想出绝世好方法,就是开一家比坚尼洗车店。他们的主意满足了所有男人的幻想:一群性感索女在洗各款名车,如法拉利、林宝坚尼!但积可以沟到心目中的女神吗?

Video

ID                                       : 1

Format                                   : AVC

Format/Info                              : Advanced Video Codec

Format profile                           : [email protected]

Format settings, CABAC                   : Yes

Format settings, ReFrames                : 4 frames

Codec ID                                 : V_MPEG4/ISO/AVC

Duration                                 : 1h 35mn

Bit rate                                 : 12.9 Mbps

Width                                    : 1 920 pixels

Height                                   : 1 080 pixels

Display aspect ratio                     : 16:9

Frame rate mode                          : Constant

Frame rate                               : 23.976 (24000/1001) fps

Color space                              : YUV

Chroma subsampling                       : 4:2:0

Bit depth                                : 8 bits

Scan type                                : Progressive

Bits/(Pixel*Frame)                       : 0.259

Stream size                              : 8.56 GiB (95%)

Writing library                          : x264 core 129 r2245 bc13772

Encoding settings                        : cabac=1 / ref=4 / deblock=1:-3:-3 / analyse=0x3:0x133 / me=umh / subme=11 / psy=1 / psy_rd=1.05:0.05 / mixed_ref=1 / me_range=64 / chroma_me=1 / trellis=2 / 8x8dct=1 / cqm=0 / deadzone=21,11 / fast_pskip=0 / chroma_qp_offset=-3 / threads=12 / lookahead_threads=2 / sliced_threads=0 / nr=0 / decimate=1 / interlaced=0 / bluray_compat=0 / constrained_intra=0 / bframes=8 / b_pyramid=2 / b_adapt=2 / b_bias=0 / direct=3 / weightb=1 / open_gop=0 / weightp=2 / keyint=250 / keyint_min=23 / scenecut=40 / intra_refresh=0 / rc_lookahead=60 / rc=2pass / mbtree=0 / bitrate=12866 / ratetol=1.0 / qcomp=0.70 / qpmin=0 / qpmax=69 / qpstep=4 / cplxblur=20.0 / qblur=0.5 / vbv_maxrate=40000 / vbv_bufsize=30000 / nal_hrd=none / ip_ratio=1.40 / pb_ratio=1.30 / aq=1:0.80

Language                                 : English

Default                                  : Yes

Forced                                   : No

Audio

ID                                       : 2

Format                                   : AC-3

Format/Info                              : Audio Coding 3

Mode extension                           : CM (complete main)

Format settings, Endianness              : Big

Codec ID                                 : A_AC3

Duration                                 : 1h 35mn

Bit rate mode                            : Constant

Bit rate                                 : 640 Kbps

Channel(s)                               : 6 channels

Channel positions                        : Front: L C R, Side: L R, LFE

Sampling rate                            : 48.0 KHz

Frame rate                               : 31.250 fps (1536 spf)

Compression mode                         : Lossy

Stream size                              : 437 MiB (5%)

Language                                 : English

Default                                  : Yes

Forced                                   : No

《全美洗车女郎》海报 《全美洗车女郎》剧照-1《全美洗车女郎》剧照-2 《全美洗车女郎》剧照-3《全美洗车女郎》剧照-4 《全美洗车女郎》剧照-5《全美洗车女郎》剧照-6 《全美洗车女郎》剧照-7

全美洗车女郎电影下载:

提示:由于该资源受到用户投诉或版权方要求,已经停止链接分享

全美洗车女郎电影评论

更多精彩电影