当前位置:
首页 » 动作片 » 师父

[师父/师傅]The.Master.2015.1080p.WEB-DL.x264.AC3-SeeHD[国语中字]

《师父》海报

◎译 名 师父/师傅

◎片 名 The Master

◎年 代 2015

◎国 家 中国

◎类 别 动作/剧情

◎语 言 普通话

◎字 幕 简体中文

◎IMDb评分 7.4/10 from 84 users

◎文件格式 x264 x AC3

◎视频尺寸 1920x800

◎文件大小 2.06 GiB

◎片 长 1h 49mn

◎导 演 徐皓峰 Haofeng Xu

◎主 演 廖凡 Fan Liao

宋佳 Jia Song

蒋雯丽 Wenli Jiang

金士杰 Shi-Jye Jin

宋洋 Yang Song

黄觉 Jue Huang

麦迪娜 Vicky

张傲月 Aoyue Zhang

马君 Jun Ma

陈观泰 Kuan Tai Chen

熊欣欣 Xinxin Xiong

戴立忍 Leon Dai

师父剧情介绍:

  民国年间师父陈识(廖凡饰)为完成“咏春北上,弘扬武学”的使命,来到天津。初来乍到的师父在一次因缘际会下,于一家西餐厅邂逅了师娘(宋佳饰)并一见钟情,后经人说亲二人喜结连理。为了在天津开武馆立足,师父陈识收当地青年耿良辰(宋洋饰)为徒,徒弟需按照江湖规矩代替师父踢馆,二人由此被卷入一场江湖巨变。最初二者各怀心事,却在经历了一番“生死劫难”后,生出难以割舍的情义。师父本以弘扬武学为终生寄托,徒弟只是他圆江 湖之梦所借助的手段,却在不经意间为其命运所牵系;徒弟飞扬勇决,放荡不羁,却总在重要关头坚守使命。他们既初心仍在,却也难负真情。

◎拍摄花絮

  .廖凡为拍摄该片“闭关”两个月刻苦练功,每天早晨凌晨四点就起床“死磕”刀桩学习咏春拳,开机前累计练习功夫超过了720个小时。

  .拍摄期繁重的武打戏份,常让廖凡伤痕累累。膝盖、肩膀多处受伤,其手指多次被兵器砍伤,左手险些骨裂。面对受伤,廖凡总是先顾拍摄,往往是等到拍摄结束后,才去处理伤势。

  .该片在烈日炎炎的高温天气下拍摄,主创们要身着厚重的长衫、西服、盔甲等戏服,手拿重量级兵器“耍功夫”,每场戏下来都会汗流浃背 。

  .该片是宋洋与导演徐浩峰合作的第三部武侠片。宋洋并不会功夫,为了拍摄该片被导演送去泰安的一所武术学校专门习武。

  .徐浩峰与廖凡在拍戏之前达成过协议,如果廖凡拳法能够练好就对外告知其是咏春,练不好就另起名称。

  .宋佳透露,她在《师父》剧组拍摄第一场戏时就被廖凡给骂了,“当时我们在候场,有个灯倒了,我这人特热心,就说谁快去扶一下。结果廖凡狠狠地瞪了我一眼,说’你现在还有心情想这个?”

  .电影《师父》2014年7月1日正式开机,拍摄历时92天辗转3800公里进行取景,招募启用8000余名演员,还原了民国服饰千余套。

  .导演通过高标准严要求的武术训练实现了零威亚、零替身、零特效的“真武侠”。

  .导演写实派的功夫描述源于他的亲身体验,出身武林世家,二姥爷是北方形意门嫡传李仲轩,从小浸染在武学氛围里,导演自己也有很高的功夫造诣。

  .导演透露,电影中频繁出现的兵器八斩刀其实是民国时期对抗外辱的兵器之一,但作为咏春绝密往往极少流传,所以网上有传言叶问教人,最后才是八斩刀。

  .他为此准备了两个月,每天4点起床一个人练功 为《师父》“闭关”两个月刻苦练功,每天早晨更是凌晨四点就起床“死磕”刀桩学习咏春拳,开机前累计练习功夫超过了720个小时。

  .繁重的武打戏份,让廖凡伤痕累累,膝盖、肩膀多处受伤,而受伤最严重的当属双手了,手指多次被兵器砍伤,左手险些骨裂。

  .该片是廖凡与宋佳时隔八年后的二度合作,宋佳还曾在微博上晒出二人的合影,并笑称她与廖凡是“花娇大廖”组合。

  .《师父》是廖凡在获得柏林电影节银熊奖最佳男主角后接拍的第一部影片,这也是他首度接演功夫电影,并在徐皓峰的两个月“集训”指导下,展现了自己“一身武艺”。

  .廖凡表示,“徐皓峰设计的套路不是花架子,是实的,他一直想建立一种风格,就是摒弃传电影武术的花和表演性,让功夫回归传统。

  .据了解,片中一场在巷中的重头戏,拍摄跨度长达11天,单机拍摄100镜,双机累计高达190镜,仅在巷战中就出现10种兵器。

获奖记录

台湾电影金马奖(2015;第52届)

获奖

·金马奖-最佳动作设计徐浩峰 Haofeng Xu

提名

·金马奖-最佳女配角奖蒋雯丽 Wenli Jiang

·金马奖-最佳改编剧本徐浩峰 Haofeng Xu

[indent]General

Format                         : Matroska

Format version                 : Version 4 / Version 2

File size                      : 2.06 GiB

Duration                       : 1h 49mn

Overall bit rate               : 2 698 Kbps

Video

ID                             : 1

Format                         : AVC

Format/Info                    : Advanced Video Codec

Format profile                 : [email protected]

Format settings, CABAC         : Yes

Format settings, ReFrames      : 3 frames

Codec ID                       : V_MPEG4/ISO/AVC

Duration                       : 1h 49mn

Bit rate                       : 2 004 Kbps

Width                          : 1 920 pixels

Height                         : 800 pixels

Display aspect ratio           : 2.40:1

Frame rate mode                : Constant

Frame rate                     : 24.000 fps

Color space                    : YUV

Chroma subsampling             : 4:2:0

Bit depth                      : 8 bits

Scan type                      : Progressive

Bits/(Pixel*Frame)             : 0.054

Stream size                    : 1.53 GiB (74%)

Default                        : Yes

Forced                         : No

Audio

ID                             : 2

Format                         : AC-3

Format/Info                    : Audio Coding 3

Mode extension                 : CM (complete main)

Format settings, Endianness    : Big

Codec ID                       : A_AC3

Duration                       : 1h 49mn

Bit rate mode                  : Constant

Bit rate                       : 640 Kbps

Channel(s)                     : 2 channels

Channel positions              : Front: L R

Sampling rate                  : 44.1 KHz

Bit depth                      : 16 bits

Compression mode               : Lossy

Delay relative to video        : -83ms

Stream size                    : 501 MiB (24%)

Default                        : Yes

Forced                         : No[/indent]

《师父》剧照-1

《师父》剧照-2

《师父》剧照-3

《师父》剧照-4

师父电影下载:

提示:由于该资源受到用户投诉或版权方要求,已经停止链接分享

师父电影评论

更多精彩电影