当前位置:
首页 » 动作片 » 秘密特工

[秘密特工][BD-MP4][720P][匠心再现复古风 诡雾冷刃战双雄 超人高颜值演绎 经典续新篇开锋]

《秘密特工》海报

◎译 名 秘密特工/特务型战(港)/绅士密令(台)/神秘特工/来自大叔局的特工

◎片 名 The Man from U.N.C.L.E.

◎年 代 2015

◎国 家 美国/英国

◎类 别 喜剧/动作/冒险

◎语 言 英语/俄语/德语/意大利语

◎上映日期 2015-08-14(美国)/2015-08-13(澳大利亚)

◎IMDb评分 7.5/10 from 65,127 users

◎豆瓣评分 8.1/10 from 13,995 users

◎片 长 116分钟

◎导 演 盖·里奇 Guy Ritchie

◎主 演 亨利·卡维尔 Henry Cavill

艾米·汉莫 Armie Hammer

艾丽西亚·维坎德 Alicia Vikander

西尔维斯特·格罗斯 Sylvester Groth

休·格兰特 Hugh Grant

杰瑞德·哈里斯 Jared Harris

伊丽莎白·德比茨基 Elizabeth Debicki

克里斯汀·伯克 Christian Berkel

乔治·利昂·马丁内斯 Jorge Leon Martinez

卢卡·卡尔瓦尼 Luca Calvani

大卫·贝克汉姆 David Beckham

丹尼尔·韦斯特伍德 Daniel Westwood

秘密特工剧情介绍:

  影片改编自同名电视剧。《秘密特工》是1964年到1968年间的一部经典电视剧,共播出了105集,由老牌影星罗伯特·沃恩 、大卫·麦考姆联袂主演,是当年一部着名的双雄剧。故事内容是关于"执法联合指挥部"的两名特工对抗敌方组织T.H.R.U.S.H.(Technological Hierarchy for the Removal of Undesirables and the Subjugation of Humanity)

代码

General

Complete name : The.Man.from.U.N.C.L.E.2015.720p.BluRay.x264.AAC2.0-SHOW.mp4

Format : MPEG-4

Format profile : Base Media

Codec ID : isom

File size : 1.32 GiB

Duration : 1h 56mn

Overall bit rate mode : Variable

Overall bit rate : 1 628 Kbps

Encoded date : UTC 2015-11-07 19:02:16

Tagged date : UTC 2015-11-07 19:02:16

Video

ID : 1

Format : AVC

Format/Info : Advanced Video Codec

Format profile : [email protected]

Format settings, CABAC : No

Format settings, ReFrames : 5 frames

Codec ID : avc1

Codec ID/Info : Advanced Video Coding

Duration : 1h 56mn

Source duration : 10s 447ms

Bit rate : 1 500 Kbps

Maximum bit rate : 11.1 Mbps

Width : 1 280 pixels

Height : 720 pixels

Display aspect ratio : 16:9

Frame rate mode : Constant

Frame rate : 23.976 fps

Color space : YUV

Chroma subsampling : 4:2:0

Bit depth : 8 bits

Scan type : Progressive

Bits/(Pixel*Frame) : 0.068

Stream size : 1.22 GiB (92%)

Source stream size : 1.22 GiB (92%)

Writing library : x264 core 120 r2164 da19765

Encoding settings : cabac=0 / ref=5 / deblock=1:-3:-3 / analyse=0x1:0x131 / me=umh / subme=7 / psy=1 / psy_rd=1.00:0.00 / mixed_ref=1 / me_range=16 / chroma_me=1 / trellis=0 / 8x8dct=0 / cqm=0 / deadzone=21,11 / fast_pskip=1 / chroma_qp_offset=-2 / threads=12 / sliced_threads=0 / nr=0 / decimate=1 / interlaced=0 / bluray_compat=0 / constrained_intra=0 / bframes=0 / weightp=0 / keyint=240 / keyint_min=23 / scenecut=40 / intra_refresh=0 / rc_lookahead=40 / rc=2pass / mbtree=1 / bitrate=1500 / ratetol=1.0 / qcomp=0.60 / qpmin=10 / qpmax=51 / qpstep=4 / cplxblur=20.0 / qblur=0.5 / ip_ratio=1.40 / aq=1:1.00

Encoded date : UTC 2015-11-07 19:02:16

Tagged date : UTC 2015-11-07 19:02:56

mdhd_Duration : 6989769

Audio

ID : 2

Format : AAC

Format/Info : Advanced Audio Codec

Format profile : LC

Codec ID : 40

Duration : 1h 56mn

Bit rate mode : Variable

Bit rate : 125 Kbps

Maximum bit rate : 219 Kbps

Channel(s) : 2 channels

Channel(s)_Original : 6 channels

Channel positions : Front: L C R, Side: L R, LFE

Sampling rate : 48.0 KHz

Compression mode : Lossy

Stream size : 105 MiB (8%)

Encoded date : UTC 2015-11-07 19:02:26

Tagged date : UTC 2015-11-07 19:02:56

《秘密特工》剧照-1

《秘密特工》剧照-2

《秘密特工》剧照-3

《秘密特工》剧照-4

《秘密特工》剧照-5

《秘密特工》剧照-6

秘密特工电影下载:

提示:由于该资源受到用户投诉或版权方要求,已经停止链接分享

秘密特工电影评论

更多精彩电影