当前位置:
首页 » 动作片 » 海豹突击队VS丧尸

海豹突击队VS丧尸NavySealsvsZombies2015720pBDRipX264AC3-EVO

海豹突击队VS丧尸 Navy Seals vs Zombies 2015 720p BDRip X264 AC3-EVO

《海豹突击队VS丧尸》海报

◎译 名 海豹突击队VS丧尸

◎片 名 Navy Seals vs. Zombies

◎年 代 2015

◎国 家 美国

◎类 别 动作

◎语 言 英语

◎上映日期 2015-10-08

◎IMDb评分 (voting begins after release)

◎片 长 97分钟

◎导 演 nm0057287 Stanton Barrett

◎主 演 Stephanie Honoré

nm0703831 Ed Quinn

nm0289213 Rick Fox

nm0353243 Molly Hagan

nm0001154 Michael Dudikoff

nm3671362 Sue-Lynn Ansari

nm1885015 Judd Lormand

nm0847857 Charlie Talbert

nm3819620 Mikal Vega

nm2404349 Han Soto

nm7103065 Micheal K. Douglas

nm3772615 Jackie Becker

nm6591687 Kevin Kent

nm3700767 Massimo Dobrovic

nm2067832 Damon Lipari

海豹突击队VS丧尸剧情介绍:

A team of highly skilled Navy SEALS find themselves embarking on the battle of their lives when they come face-to-face with the undead. After a deadly outbreak occurs in New Orleans, the SEALS must fight for their lives, and the city, against an army of zombies.

Video

ID : 1

Format : AVC

Format/Info : Advanced Video Codec

Format profile : [email protected]

Format settings, CABAC : Yes

Format settings, ReFrames : 4 frames

Codec ID : V_MPEG4/ISO/AVC

Duration : 1h 37mn

Bit rate : 5 190 Kbps

Nominal bit rate : 5 500 Kbps

Width : 1 280 pixels

Height : 720 pixels

Display aspect ratio : 16:9

Frame rate mode : Constant

Frame rate : 23.976 fps

Color space : YUV

Chroma subsampling : 4:2:0

Bit depth : 8 bits

Scan type : Progressive

Bits/(Pixel*Frame) : 0.235

Stream size : 3.55 GiB (87%)

Title : Navy.Seals.vs.Zombies.2015.720p.BluRay.x264.DD5.1-RARBG

Writing library : x264 core 146 r2555 0c21480

Encoding settings : cabac=1 / ref=4 / deblock=1:-2:-2 / analyse=0x3:0x113 / me=umh / subme=7 / psy=1 / psy_rd=1.00:0.15 / mixed_ref=1 / me_range=16 / chroma_me=1 / trellis=1 / 8x8dct=1 / cqm=0 / deadzone=21,11 / fast_pskip=1 / chroma_qp_offset=-3 / threads=12 / lookahead_threads=3 / sliced_threads=0 / nr=0 / decimate=1 / interlaced=0 / bluray_compat=0 / constrained_intra=0 / bframes=3 / b_pyramid=2 / b_adapt=2 / b_bias=0 / direct=3 / weightb=1 / open_gop=0 / weightp=2 / keyint=250 / keyint_min=25 / scenecut=40 / intra_refresh=0 / rc_lookahead=50 / rc=abr / mbtree=1 / bitrate=5500 / ratetol=1.0 / qcomp=0.60 / qpmin=0 / qpmax=69 / qpstep=4 / vbv_maxrate=31250 / vbv_bufsize=31250 / nal_hrd=none / filler=0 / ip_ratio=1.40 / aq=1:1.00

Language : English

Default : Yes

Forced : No

Audio

ID : 2

Format : AC-3

Format/Info : Audio Coding 3

Mode extension : CM (complete main)

Format settings, Endianness : Big

Codec ID : A_AC3

Duration : 1h 37mn

Bit rate mode : Constant

Bit rate : 640 Kbps

Channel(s) : 6 channels

Channel positions : Front: L C R, Side: L R, LFE

Sampling rate : 48.0 KHz

Compression mode : Lossy

Stream size : 448 MiB (11%)

Title : Navy.Seals.vs.Zombies.2015.720p.BluRay.x264.DD5.1-RARBG

Language : English

Default : Yes

Forced : No

《海豹突击队VS丧尸》剧照-1

海豹突击队VS丧尸电影下载:

提示:由于该资源受到用户投诉或版权方要求,已经停止链接分享

海豹突击队VS丧尸电影评论

更多精彩电影