当前位置:
首页 » 剧情片 » 十二公民

[十二公民/十二个中国人]12.Citizens.2015.1080p.WEB-DL.x264.AAC-SeeHD 中字/2.26

《十二公民》海报

◎译 名 十二公民/12公民/十二个中国人

◎片 名 12 Citizens

◎年 代 2015

◎国 家 中国

◎类 别 剧情/悬疑

◎语 言 普通话

◎字 幕 简体中文/英文

◎IMDB评分 7.1/10 from 62 users

◎文件格式 x264 + AAC

◎视频尺寸 1920 x 1072

◎文件大小 1CD 2.26 GiB

◎片 长 1h 43mn

◎导 演 徐昂 Ang Xu

◎主 演 何冰 Bing He ...8号陪审员

韩童生 Tongsheng Han ...出租车

钱波 Qian Po ...小卖部老板

赵春羊 Chunyang Zhao ...房地产老板

高东平 Dongping Gao ...黑社会

张永强 Yongqiang Zhang ...吃房租的老北京

李光复 Guangfu Li ...医生

王刚 Gang Wang ...老师

班赞 Zan Ban ...保安

雷佳 Jia Lei ...团长

米铁增  Tiezeng Mi ...老人

十二公民剧情介绍:

  暑期一所政法大学内,未通过英美法课程期末考试的学生迎来补考。他们组成模拟西方法庭,分别担任法官、律师、检察官等角色,审理的正是一桩社会上饱受争议的“20岁富二代弑父”案。12位学生家长组成了陪审团。这些人来自社会不同阶层,有医生、房地产商、保安、教授、保险推销员等。他们在听取学生法庭审理后,将对本案做出最终“判决”。

  这12名陪审员互不相识,但按照规则,他们必须达成一致,才能结束审判。第一轮投票,就有11人认定“富二代”有罪,所有人证物证都指向这一结果的情

  形下,这位年轻的嫌疑犯离舆论上的死亡只有一步之遥。所有的线索都被逐一讨论,随着审判的进行,疑点出现,每个人背后的故事也浮出水面……

  本片改编自《十二怒汉》,获得2014年罗马国际电影节最高奖。

General

Format : MPEG-4

Format profile : Base Media

Codec ID : isom

File size : 2.26 GiB

Duration : 1h 43mn

Overall bit rate mode : Variable

Overall bit rate : 3 133 Kbps

Encoded date : UTC 2015-09-22 11:25:07

Tagged date : UTC 2015-09-22 11:25:07

Video

ID : 1

Format : AVC

Format/Info : Advanced Video Codec

Format profile : [email protected]

Format settings, CABAC : Yes

Format settings, ReFrames : 4 frames

Codec ID : avc1

Codec ID/Info : Advanced Video Coding

Duration : 1h 43mn

Bit rate : 2 993 Kbps

Maximum bit rate : 11.9 Mbps

Width : 1 920 pixels

Height : 1 072 pixels

Display aspect ratio : 16:9

Frame rate mode : Variable

Frame rate : 25.000 fps

Minimum frame rate : 24.671 fps

Maximum frame rate : 25.112 fps

Color space : YUV

Chroma subsampling : 4:2:0

Bit depth : 8 bits

Scan type : Progressive

Bits/(Pixel*Frame) : 0.058

Stream size : 2.15 GiB (96%)

Writing library : Provided by x264 :: H.264/MPEG-4 AVC codec -V 1.6.08

Encoded date : UTC 2015-09-22 10:22:20

Tagged date : UTC 2015-09-22 11:25:16

Color primaries : BT.709

Transfer characteristics : BT.709

Matrix coefficients : BT.709

Audio

ID : 2

Format : AAC

Format/Info : Advanced Audio Codec

Format profile : LC

Codec ID : 40

Duration : 1h 43mn

Bit rate mode : Variable

Bit rate : 128 Kbps

Maximum bit rate : 135 Kbps

Channel(s) : 2 channels

Channel positions : Front: L R

Sampling rate : 44.1 KHz

Compression mode : Lossy

Stream size : 94.4 MiB (4%)

Encoded date : UTC 2015-09-22 11:25:15

Tagged date : UTC 2015-09-22 11:25:16

十二公民电影下载:

提示:由于该资源受到用户投诉或版权方要求,已经停止链接分享

十二公民电影评论

更多精彩电影