当前位置:
首页 » 喜剧片 » 小时代4:特别版

[小时代4:特别版]Tiny.Time 4.0.2015.1080p.WEB-DL.x264.AC3-SeeHD 内嵌中英字幕

《小时代4:特别版》海报

◎译 名 小时代4:特别版/小时代4 加长版

◎片 名 Tiny Time 4.0

◎年 代 2015-07-09(中国大陆)

◎国 家 中国大陆

◎类 别 喜剧 / 爱情

◎语 言 汉语普通话

◎字 幕 中文/英文

◎IMDB评分 Ratings: 2.4/10 from 52 users

◎文件格式 x264 + AC3

◎视频尺寸 1920 x 800

◎文件大小 1CD 4.10 GiB

◎片 长 2h 41mn

◎导 演 郭敬明  Jingming Guo

◎主 演 杨幂  Mini Yang   林萧

郭采洁  Amber Kuo   顾里

郭碧婷  Biting Guo   南湘

谢依霖  Sie Yi-Lin   唐宛如

陈学冬  Xuedong Chen   周崇光(陆烧)

锦荣  Vivian Dawson   宫洺

李贤宰  Hyun-Jae Lee   Neil

任佑明  Ming   顾准

姜潮  Jo   席城

王琳  Lin Wang   叶传萍

杜天皓  Tianhao Du   卫海

张籽沐  Zi Mu Zhang   顾里(幼年)

纪姿含  Zi Han Ji   林萧(幼年)

柴蔚  Wei Chai   林萧(童年)

汤甄      Zhen Tang           顾里(童年)

丹尼斯·凯恩      Kane Dennis           崇光(童年)

张汉盛      Hansheng Zhang           宫洺(童年)

姜洋乐      Yangle Jiang           南湘(童年)

小时代4:特别版剧情介绍:

  《小时代4》作为影片《小时代》系列的终结篇,故事依然围绕林萧、顾里、南

  湘、唐宛如四姐妹展开,随着时间一点一滴的流逝,在这座看似平和,实则危机四伏、充满阴谋的城市,四个不同性格、不同价值观人生观的姐妹,相互依偎,先后

经历友情、爱情乃至亲情的巨大转变......

  小时代4特别版纪录片35分纪念最好的我们:《最好的我们》独家揭秘了《小时代》系列电影台前幕后花絮。此外纪录片中还完整交代了电影《小时代》系列四部曲从开机到杀青的全貌。

  作为电影《小时代》系列的终结篇,《小时代4:灵魂尽头》推出了增加35分钟《最好的我们》纪录片的特别放映场。

General

Format                         : Matroska

Format version                 : Version 4 / Version 2

File size                      : 4.10 GiB

Duration                       : 2h 41mn

Overall bit rate               : 3 639 Kbps

Encoded date                   : UTC 2015-08-04 07:13:39

Writing application            : mkvmerge v7.1.0 ('Good Love') 32bit built on Jul 27 2014 12:59:18

Writing library                : libebml v1.3.0 + libmatroska v1.4.1

_STATISTICS_WRITING_APP        : mkvmerge v7.1.0 ('Good Love') 32bit built on Jul 27 2014 12:59:18

_STATISTICS_WRITING_DATE_UTC   : 2015-08-04 07:13:39

_STATISTICS_TAGS               : BPS DURATION NUMBER_OF_FRAMES NUMBER_OF_BYTES

DURATION                       : 02:41:30.140000000

NUMBER_OF_FRAMES               : 278213

NUMBER_OF_BYTES                : 775211194

Video

ID                             : 1

Format                         : AVC

Format/Info                    : Advanced Video Codec

Format profile                 : [email protected]

Format settings, CABAC         : Yes

Format settings, ReFrames      : 4 frames

Codec ID                       : V_MPEG4/ISO/AVC

Duration                       : 2h 41mn

Bit rate                       : 2 926 Kbps

Width                          : 1 920 pixels

Height                         : 800 pixels

Display aspect ratio           : 2.40:1

Frame rate mode                : Constant

Frame rate                     : 24.000 fps

Color space                    : YUV

Chroma subsampling             : 4:2:0

Bit depth                      : 8 bits

Scan type                      : Progressive

Bits/(Pixel*Frame)             : 0.079

Stream size                    : 3.30 GiB (80%)

Writing library                : Provided by x264  :: H.264/MPEG-4 AVC codec -V 1.6.08

Default                        : Yes

Forced                         : No

Color primaries                : BT.709

Transfer characteristics       : BT.709

Matrix coefficients            : BT.709

Audio

ID                             : 2

Format                         : AC-3

Format/Info                    : Audio Coding 3

Mode extension                 : CM (complete main)

Format settings, Endianness    : Big

Codec ID                       : A_AC3

Duration                       : 2h 41mn

Bit rate mode                  : Constant

Bit rate                       : 640 Kbps

Channel(s)                     : 2 channels

Channel positions              : Front: L R

Sampling rate                  : 44.1 KHz

Bit depth                      : 16 bits

Compression mode               : Lossy

Stream size                    : 739 MiB (18%)

Default                        : Yes

Forced                         : No

小时代4:特别版影片截图:

《小时代4:特别版》剧照-1

《小时代4:特别版》剧照-2

《小时代4:特别版》剧照-3

《小时代4:特别版》剧照-4

《小时代4:特别版》剧照-5

小时代4:特别版电影下载:

提示:推荐使用BitComet、Utorrent、QQ旋风、迅雷下载小时代4:特别版。喜欢在线看的朋友可以把种子上传到百度网盘、115网盘,离线下载完手机电脑都可以在线看。

小时代4:特别版电影评论

更多精彩电影