当前位置:
首页 » 剧情片 » 麦克斯

麦克斯/海军忠犬 Max.2015.1080p.HC.WEBRip.x264.AC3.5.1-RARBG

《麦克斯》海报

◎译 名 麦克斯/海军忠犬(港)

◎片 名 Max

◎年 代 2015

◎国 家 美国

◎类 别 剧情/冒险

◎语 言 英语

◎上映日期 2015-06-26(美国)

◎IMDb评分 7.3/10 from 2,213 users

◎豆瓣评分 7.0/10 from 44 users

◎片 长 111分钟

◎导 演 鲍兹·亚金 Boaz Yakin

◎主 演 罗比·阿美尔 Robbie Amell

劳伦·格拉汉姆 Lauren Graham

托马斯·哈登·丘奇 Thomas Haden Church

杰伊·赫尔南德兹 Jay Hernandez

卢克·克莱恩坦克 Luke Kleintank

约瑟夫·朱利安·索里亚 Joseph Julian Soria

乔什·维金斯 Josh Wiggins

欧文·哈恩 Owen Harn

Blanca Camacho

麦克斯剧情介绍:

  海军忠犬麦克斯在阿富汗前线服役期间,搭档凯尔(罗比·阿美尔 Robbie Amell 饰)不幸殉职身亡,麦克斯因此患上后遗症,拒绝与别人接触,不能再服役。麦克斯被凯尔的家人收养,并由凯尔的弟弟——问题少年贾斯汀(乔什·维金斯 Josh Wiggins 饰)负责照顾。一人一狗由互相排斥,慢慢变成心灵伴侣。重振雄风的麦克斯,还配合贾斯汀追查凯尔殉职的秘密……

Video

ID                           : 1

Format                       : AVC

Format/Info                     : Advanced Video Codec

Format profile                   : [email protected]

Format settings, CABAC              : Yes

Format settings, ReFrames            : 4 frames

Codec ID                       : V_MPEG4/ISO/AVC

Duration                       : 1h 50mn

Bit rate                       : 4 500 Kbps

Width                         : 1 920 pixels

Height                       : 800 pixels

Display aspect ratio               : 2.40:1

Frame rate mode                 : Constant

Frame rate                      : 23.976 fps

Color space                     : YUV

Chroma subsampling               : 4:2:0

Bit depth                     : 8 bits

Scan type                     : Progressive

Bits/(Pixel*Frame)               : 0.122

Stream size                     : 3.33 GiB (90%)

Title                         : Max.2015.1080p.HC.WEBRip.x264.AC3.5.1-RARBG

Writing library                 : x264 core 142 r2495 6a301b6

Encoding settings                 : cabac=1 / ref=4 / deblock=1:-1:-1 / analyse=0x3:0x113 / me=umh / subme=9 / psy=1 / psy_rd=1.00:0.15 / mixed_ref=1 / me_range=16 / chroma_me=1 / trellis=2 / 8x8dct=1 / cqm=0 / deadzone=21,11 / fast_pskip=1 / chroma_qp_offset=-3 / threads=8 / lookahead_threads=2 / sliced_threads=0 / nr=0 / decimate=1 / interlaced=0 / bluray_compat=0 / constrained_intra=0 / bframes=3 / b_pyramid=2 / b_adapt=2 / b_bias=0 / direct=3 / weightb=1 / open_gop=0 / weightp=2 / keyint=250 / keyint_min=25 / scenecut=40 / intra_refresh=0 / rc_lookahead=50 / rc=abr / mbtree=1 / bitrate=4500 / ratetol=1.0 / qcomp=0.60 / qpmin=0 / qpmax=69 / qpstep=4 / vbv_maxrate=31250 / vbv_bufsize=31250 / nal_hrd=none / filler=0 / ip_ratio=1.40 / aq=1:1.00

Language                       : English

Default                        : Yes

Forced                       : No

Audio

ID                           : 2

Format                       : AC-3

Format/Info                     : Audio Coding 3

Mode extension                   : CM (complete main)

Format settings, Endianness         : Big

Codec ID                       : A_AC3

Duration                       : 1h 50mn

Bit rate mode                    : Constant

Bit rate                       : 384 Kbps

Channel(s)                      : 6 channels

Channel positions                 : Front: L C R, Side: L R, LFE

Sampling rate                    : 48.0 KHz

Compression mode                  : Lossy

Stream size                     : 305 MiB (8%)

Title                         : Max.2015.1080p.HC.WEBRip.x264.AC3.5.1-RARBG

Language                       : English

Default                        : Yes

Forced                       : No

《麦克斯》剧照-1

《麦克斯》剧照-2

《麦克斯》剧照-3

《麦克斯》剧照-4

麦克斯电影下载:

提示:由于该资源受到用户投诉或版权方要求,已经停止链接分享

麦克斯电影评论

更多精彩电影