当前位置:
首页 » 喜剧片 » 死亡觉醒

《死亡觉醒》(Woke Up Dead)[DVDRip]

中文名: 死亡觉醒

英文名: Woke Up Dead

资源格式: DVDRip

发行日期: 2009年

导演: Tim O'Donnell

演员: Jon Heder ... Drex Greene (24 episodes, 2009)

Krysten Ritter ... Cassie (22 episodes, 2009)

Josh Gad ... Matt (21 episodes, 2009)

Daniel Roebuck ... Shadow Man (14 episodes, 2009)

Wayne Knight ... Andrew Batten (10 episodes, 2009)

Meital Dohan ... Aurora (9 episodes, 2009)

地区: 美国

语言: 英语

死亡觉醒剧情介绍:

《死亡觉醒》海报

◎译 名 死亡觉醒

◎片 名 Woke Up Dead

◎年 代 2010

◎国 家 美国

◎类 别 喜剧/恐怖

◎语 言 英语

◎字 幕 N/A

◎IMDB评分 5.3/10 (36 votes)

◎文件格式 XviD + MP3

◎视频尺寸 592 x 320

◎文件大小 1CD 50 x 15MB

◎片 长 83 Mins

◎导 演 Tim O'Donnell

◎主 演 Jon Heder ... Drex Greene (24 episodes, 2009)

Krysten Ritter ... Cassie (22 episodes, 2009)

Josh Gad ... Matt (21 episodes, 2009)

Daniel Roebuck ... Shadow Man (14 episodes, 2009)

Wayne Knight ... Andrew Batten (10 episodes, 2009)

Meital Dohan ... Aurora (9 episodes, 2009)

◎简 介

  在片中乔恩·海德 Jon Heder饰演的主角是一个因为车祸意外死亡但又变成丧尸的倒霉小子,没想复活后满脑子的吃人想法使他苦不堪言,为此他与他的伙伴们一起踏寻上追求真相的道路。

In this grotesquely hilarious new zombie comedy, Drex Greene (Napoleon Dynamite's Jon Heder), a confused zombie who can't be any deader, tries to solve the case of the mystery pill that left him drowned in a bathtub. With the help of his wannabe filmmaker roommate Matt (The Daily Show's Josh Gad) and the sexy med student Cassie (Breaking Bad's Krysten Ritter), who first discovers Drex as he unzips himself from his own body bag, the three begin to uncover leads about why his death didn't stick, why a mystery online chat buddy is after him and why he's starting to show signs of superpowers. Will they figure out why Drex is only sort of dead? Will Cassie discover ancient Zombie secrets? Will Matt get a film career out of it? Or is falling in love actually what Drex needs to do to stay alive? Woke Up Dead co-stars Wayne Knight (Seinfeld) and Jean Smart (24, Frasier).

代码

Format : AVI

Format/Info : Audio Video Interleave

File size : 701 MiB

Duration : 1h 23mn

Overall bit rate : 1 170 Kbps

Writing application : VirtualDubMod 1.5.10.2 (build 2540/release)

Writing library : VirtualDubMod build 2540/release

Video

ID : 0

Format : MPEG-4 Visual

Format profile : [email protected]

Format settings, BVOP : Yes

Format settings, QPel : No

Format settings, GMC : No warppoints

Format settings, Matrix : Default (H.263)

Codec ID : XVID

Codec ID/Hint : XviD

Duration : 1h 23mn

Bit rate : 997 Kbps

Width : 592 pixels

Height : 320 pixels

Display aspect ratio : 1.850

Frame rate : 23.976 fps

Color space : YUV

Chroma subsampling : 4:2:0

Bit depth : 8 bits

Scan type : Progressive

Bits/(Pixel*Frame) : 0.220

Stream size : 598 MiB (85%)

Writing library : XviD 1.0.3 (UTC 2004-12-20)

Audio

ID : 1

Format : MPEG Audio

Format version : Version 1

Format profile : Layer 3

Mode : Joint stereo

Mode extension : MS Stereo

Codec ID : 55

Codec ID/Hint : MP3

Duration : 1h 23mn

Bit rate mode : Variable

Bit rate : 160 Kbps

Minimum bit rate : 160 Kbps

Channel(s) : 2 channels

Sampling rate : 48.0 KHz

Stream size : 95.9 MiB (14%)

Alignment : Aligned on interleaves

Interleave, duration : 24 ms (0.58 video frame)

Interleave, preload duration : 115 ms

Writing library : LAME3.95

Encoding settings : -m j -V 4 -q 3 -lowpass 18 --vbr-old -b 160

死亡觉醒电影下载:

提示:由于该资源受到用户投诉或版权方要求,已经停止链接分享

死亡觉醒电影评论

更多精彩电影